Mayo Chiki! | Wu-Tang Clan Discography @ 320 (22 Albums)(RAP)(by dragan09) | Season 1 Episode 3 Stained Glass

Every Secret Thing - Ogni cosa è segreta (2014).720p.H264.italia...

  • Category Movies
  • Type HD
  • Language English
  • Total size 1.7 GB
  • Uploaded By robbyrs
  • Downloads 850
  • Last checked 1 day ago
  • Date uploaded 1 month ago
  • Seeders 17
  • Leechers 1

Every Secret Thing

DramaCrime

One clear summer day in a Baltimore suburb, a baby goes missing from her front porch. Two young girls serve seven years for the crime and are released into a town that hasn't fully forgiven or forgotten. Soon, another child is missing, and two detectives are called in to investigate the mystery in a community where everyone seems to have a secret.

Infohash : 21AFD2D1D5AF9367E3420EA972813E7E0551100A

Every Secret Thing - Ogni cosa è segreta (2014).720p.H264.italian.english.Ac3-5.1.sub.ita.eng.MIRCrew


NO FOUND ONLY ORIGINAL RELEASE



My release is always in double track audio italian and Original audio
for select it use VLC or dvd player home
not use wmp

Ogni cosa è segreta - Every Secret Thing (2014)

Qualità MIRCrew in HD 720p da 1,8 gb







Titolo originale Every Secret Thing
Lingua originale inglese
Paese di produzione Stati Uniti
Anno 2014
Durata 93 min
Genere drammatico
Regia Amy J. Berg
Soggetto Laura Lippman
Sceneggiatura Nicole Holofcener
Produttore Anthony Bregman, Frances McDormand
Produttore esecutivo Ashok Amritraj, Stefanie Azpiazu, Michael Bederman, Kevin Scott Frakes, Raj Brinder Singh
Casa di produzione Hyde Park Entertainment, Likely Story, Merced Media Partners, PalmStar Entertainment
Fotografia Rob Hardy
Montaggio Billy McMillin, Ron Patane
Musiche Robin Coudert
Scenografia Molly Hughes



Diane Lane: Helen Manning
Elizabeth Banks: Detective Nancy Porter
Dakota Fanning: Ronnie Fuller
Danielle Macdonald: Alice Manning
Nate Parker: Kevin Jones
Common: Devlin Hatch
Colin Donnell: Paul Porter



Questo thriller vede come protagoniste due ragazzine di poco più di 8 anni. Ronnie Fuller e Alice Manning. Alice è figlia unica di una madre single che l'ha cresciuta amorevolmente e dedicandole ogni attenzione. Ronnie è figlia di una famiglia disagiata. Le due ragazzine non sono amiche ma all'inizio del film la madre di Alice, Helen, incoraggia la figlia ad andare a una festa di compleanno in compagnia di Ronnie, poiché è sempre sola e senza amici..............



A detective looks to unravel a mystery surrounding missing children and the prime suspects: two young women who, seven years ago, were put away for an infant's death. .............









[spoiler]
General
Unique ID : 167077491423105725828075970073388528810 (0x7DB1F4520473D263DC1D5CA7197234AA)
Complete name : Ogni cosa è segreta - Every Secret Thing (2014).720p.h264.ita.eng.sub.ita-MIRCrew\Ogni cosa è segreta - Every Secret Thing (2014).720p.h264.ita.eng.sub.ita-MIRCrew.mkv
Format : Matroska
Format version : Version 2
File size : 1.73 GiB
Duration : 1h 32mn
Overall bit rate : 2 678 Kbps
Encoded date : UTC 2018-03-12T17:03:11Z
Writing application : HandBrake 0.10.5 2016021100
Writing library : Lavf55.12.0

Video
ID : 1
Format : AVC
Format/Info : Advanced Video Codec
Format profile : [email protected]
Format settings, CABAC : Yes
Format settings, ReFrames : 4 frames
Codec ID : V_MPEG4/ISO/AVC
Duration : 1h 32mn
Bit rate : 1 800 Kbps
Width : 1 280 pixels
Height : 688 pixels
Display aspect ratio : 1.860
Frame rate mode : Variable
Frame rate : 24.000 fps
Color space : YUV
Chroma subsampling : 4:2:0
Bit depth : 8 bits
Scan type : Progressive
Bits/(Pixel*Frame) : 0.085
Stream size : 1.11 GiB (65%)
Writing library : x264 core 142 r2479 dd79a61
Encoding settings : cabac=1 / ref=3 / deblock=1:0:0 / analyse=0x3:0x113 / me=hex / subme=7 / psy=1 / psy_rd=1.00:0.00 / mixed_ref=1 / me_range=16 / chroma_me=1 / trellis=1 / 8x8dct=1 / cqm=0 / deadzone=21,11 / fast_pskip=1 / chroma_qp_offset=-2 / threads=3 / lookahead_threads=1 / sliced_threads=0 / nr=0 / decimate=1 / interlaced=0 / bluray_compat=0 / constrained_intra=0 / bframes=3 / b_pyramid=2 / b_adapt=1 / b_bias=0 / direct=1 / weightb=1 / open_gop=0 / weightp=2 / keyint=240 / keyint_min=24 / scenecut=40 / intra_refresh=0 / rc_lookahead=40 / rc=abr / mbtree=1 / bitrate=1800 / ratetol=1.0 / qcomp=0.60 / qpmin=0 / qpmax=69 / qpstep=4 / vbv_maxrate=62500 / vbv_bufsize=78125 / nal_hrd=none / filler=0 / ip_ratio=1.40 / aq=1:1.00
Default : Yes
Forced : No
Color primaries : BT.709-5, BT.1361, IEC 61966-2-4, SMPTE RP177
Transfer characteristics : BT.709-5, BT.1361
Matrix coefficients : BT.709-5, BT.1361, IEC 61966-2-4 709, SMPTE RP177

Audio #1
ID : 2
Format : AC-3
Format/Info : Audio Coding 3
Mode extension : CM (complete main)
Codec ID : A_AC3
Duration : 1h 32mn
Bit rate mode : Constant
Bit rate : 448 Kbps
Channel(s) : 6 channels
Channel positions : Front: L C R, Side: L R, LFE
Sampling rate : 48.0 KHz
Bit depth : 16 bits
Compression mode : Lossy
Delay relative to video : 1mn 5s
Stream size : 296 MiB (17%)
Title : Surround
Language : Italian
Default : Yes
Forced : No

Audio #2
ID : 3
Format : AC-3
Format/Info : Audio Coding 3
Mode extension : CM (complete main)
Codec ID : A_AC3
Duration : 1h 32mn
Bit rate mode : Constant
Bit rate : 448 Kbps
Channel(s) : 6 channels
Channel positions : Front: L C R, Side: L R, LFE
Sampling rate : 48.0 KHz
Bit depth : 16 bits
Compression mode : Lossy
Delay relative to video : 1mn 5s
Stream size : 296 MiB (17%)
Title : Surround
Language : English
Default : No
Forced : No

Menu
00:00:00.000 : :00:00:00.000
00:07:20.625 : :00:07:20.542
00:15:15.916 : :00:15:15.833
00:22:33.875 : :00:22:33.792
00:30:27.500 : :00:30:27.417
00:36:42.833 : :00:36:42.750
00:44:25.666 : :00:44:25.583
00:52:31.666 : :00:52:31.458
01:00:26.458 : :01:00:26.375
01:08:49.000 : :01:08:48.917
01:19:23.833 : :01:19:23.750
01:28:07.708 : :01:28:07.625




[/spoiler]



Files:

Ogni cosa è segreta - Every Secret Thing (2014).720p.h264.ita.eng.sub.ita-MIRCrew
  • MIRCrew-ilCorSaRoNeRo.txt (0.1 KB)
  • Ogni cosa è segreta - Every Secret Thing (2014).720p.h264.ita.eng.sub.ita-MIRCrew.ita.srt (76.0 KB)
  • Ogni cosa è segreta - Every Secret Thing (2014).720p.h264.ita.eng.sub.ita-MIRCrew.mkv (1.7 GB)

There are currently no comments. Feel free to leave one :)

Code:

  • udp://tracker.coppersurfer.tk:6969/announce
  • udp://tracker.opentrackr.org:1337/announce
  • udp://tracker.pirateparty.gr:6969/announce
  • udp://tracker.zer0day.to:1337/announce
  • udp://p4p.arenabg.com:1337/announce
  • udp://p4p.arenabg.ch:1337/announce
  • udp://eddie4.nl:6969/announce
  • udp://tracker.leechers-paradise.org:6969/announce
  • udp://9.rarbg.me:2740/announce
  • udp://9.rarbg.to:2740/announce
  • udp://9.rarbg.com:2710/announce
  • udp://tracker.internetwarriors.net:1337/announce
  • udp://tracker.cyberia.is:6969/announce